<?xml version="1.0" standalone="no"?>
<!DOCTYPE svg PUBLIC "-//W3C//DTD SVG 1.1//EN" "http://www.w3.org/Graphics/SVG/1.1/DTD/svg11.dtd">
<svg xmlns="http://www.w3.org/2000/svg">
<metadata>Copyright (C) 2023 by original authors @ fontello.com</metadata>
<defs>
<font id="mw-icons" horiz-adv-x="1000" >
<font-face font-family="mw-icons" font-weight="400" font-stretch="normal" units-per-em="1000" ascent="850" descent="-150" />
<missing-glyph horiz-adv-x="1000" />
<glyph glyph-name="parking-light" unicode="&#xe800;" d="M781 788h-687c-52 0-94-42-94-94v-688c0-52 42-94 94-94h687c52 0 94 42 94 94v688c0 52-42 94-94 94z m32-782c0-17-15-31-32-31h-687c-17 0-31 14-31 31v688c0 17 14 31 31 31h687c17 0 32-14 32-31v-688z m-336 594h-180c-9 0-16-7-16-15v-469c0-9 7-16 16-16h31c9 0 16 7 16 16v140h140c101 0 181 87 172 190-9 89-89 154-179 154z m7-281h-140v219h140c61 0 110-49 110-110s-49-109-110-109z" horiz-adv-x="875" />

<glyph glyph-name="horse-saddle-regular" unicode="&#xe801;" d="M906 694a31 31 0 1 1 32-31 31 31 0 0 1-32 31z m219-44c0 19-10 46-21 60l-43 52c31 10 57 36 64 69a16 16 0 0 1-16 19h-265c-134 0-246-94-274-219h-226a218 218 0 0 1-180-94c-91-4-164-79-164-171v-110a31 31 0 0 1 31-31h32a31 31 0 0 1 31 31v110c0 25 13 47 33 62-1-5-14-94 61-169l-25-85a161 161 0 0 1-2-80l47-196a63 63 0 0 1 60-48h146a63 63 0 0 1 61 78l-50 197 19 51 119-26v-238a63 63 0 0 1 62-62h156a63 63 0 0 1 63 62v305a246 246 0 0 1 62 159c0 2 0 16 0 16a126 126 0 0 1 80 1l61 20a115 115 0 0 1 78 110z m-687-376l-55 12-56-157 47-185h-81l-41 171a65 65 0 0 0 0 32l45 150a125 125 0 0 0 16 236v-27c0-78 53-144 125-164z m-32 232v32h157v-32a78 78 0 0 0-157 0z m611-4l-61-21a31 31 0 0 0-32 8l-49 49h-62v-157h0a156 156 0 0 0-63-124v-313h-94v281l-125 28v89c72 20 125 86 125 164v63a188 188 0 0 0 188 187h100l87-106 0-127a22 22 0 0 0-14-21z" horiz-adv-x="1125" />

<glyph glyph-name="check-light" unicode="&#xe802;" d="M808 670l-547-546-194 193c-9 9-24 9-33 0l-22-22c-9-9-9-24 0-33l232-232c9-10 24-10 33 0l586 585c9 9 9 24 0 33l-22 22c-9 10-24 10-33 0z" horiz-adv-x="875" />

<glyph glyph-name="long-arrow-right-regular" unicode="&#xe803;" d="M577 624l-38-38c-9-10-9-25 0-34l158-151h-674c-12 0-23-11-23-24v-54c0-13 11-24 23-24h674l-158-151c-9-9-9-24 0-34l38-38c9-9 24-9 33 0l258 257c9 10 9 24 0 34l-258 257c-9 9-24 9-33 0z" horiz-adv-x="875" />

<glyph glyph-name="long-arrow-left-regular" unicode="&#xe804;" d="M298 76l38 38c9 10 9 25 0 34l-158 151h674c13 0 23 11 23 24v54c0 13-10 24-23 24h-674l158 151c9 9 9 24 0 34l-38 38c-9 9-24 9-33 0l-258-257c-9-10-9-24 0-34l258-257c9-9 24-9 33 0z" horiz-adv-x="875" />

<glyph glyph-name="times-circle-light" unicode="&#xe805;" d="M500 834c-268 0-484-216-484-484s216-484 484-484 484 216 484 484-216 484-484 484z m0-906c-232 0-422 188-422 422 0 232 188 422 422 422 232 0 422-188 422-422 0-232-188-422-422-422z m185 557l-135-135 135-135c9-9 9-24 0-34l-16-16c-10-9-24-9-34 0l-135 135-135-135c-9-9-24-9-34 0l-16 16c-9 10-9 25 0 34l135 135-135 135c-9 10-9 24 0 34l16 16c10 9 25 9 34 0l135-135 135 135c10 9 24 9 34 0l16-16c9-10 9-24 0-34z" horiz-adv-x="1000" />

<glyph glyph-name="lounge-icon" unicode="&#xe81c;" d="M1806 285c49-20 69-54 68-105-1-79 1-159 0-238-1-48-38-87-85-92-47-4-89 26-99 73-4 16-3 33-5 51h-1497c0-12 0-22 0-33-2-51-44-91-94-91-51 0-93 41-93 92-1 84-1 169 0 254 0 51 41 90 92 92 1 0 1 0 2 0 26 1 57-6 79 4 22 10 36 38 54 58 45 52 91 105 142 163-7 4-15 7-21 13-55 55-110 110-165 165-27 28-35 61-22 98 13 35 40 56 77 60 34 5 61-9 84-32 126-126 252-252 377-378 19-19 37-27 64-26 316 0 632 0 948 0 59 0 103-43 99-99 0-9-3-19-5-29z m-869-60c-275 0-550 0-825 0-6 0-12 1-18 0-19-1-31-12-31-31-1-83-1-166 0-250 0-19 14-31 31-31 17 0 30 12 31 31 1 15 0 30 0 45 0 41 8 49 49 49 509 0 1017 0 1526 0 5 0 9 0 14 0 23-1 34-12 35-35 0-20-1-40 0-59 1-19 14-31 31-31 17 0 30 12 31 31 0 5 0 10 0 16 0 73 0 146 0 219 0 38-8 46-47 46-276 0-552 0-827 0z m266 63c168 0 337 0 505 0 26 0 41 11 41 31 0 20-15 31-41 31-4 0-9 0-14 0-322 0-643 1-965 0-21 0-35 6-49 21-132 132-264 264-396 397-5 4-9 9-14 13-14 11-28 10-41-1-13-11-13-29-3-43 4-4 8-8 12-12 139-139 278-278 417-418 13-13 27-19 46-19 167 0 335 0 502 0z m-945 2h321c-56 56-113 113-171 171-49-56-98-113-150-171z m1455-190c22 1 36 13 36 32-1 19-14 31-36 31-49 0-97 0-146 0-23 0-37-13-36-32 0-18 14-30 35-30 24-1 48 0 72 0 25 0 50-1 75 0z m-307 31c0-17 15-31 31-30 17 0 31 14 31 31-1 17-15 31-32 31-17-1-31-15-30-32z" horiz-adv-x="1874" />

<glyph glyph-name="parking-icon" unicode="&#xe81d;" d="M389 850h-389v-1000h222v333h167c184 0 333 150 333 334s-149 333-333 333z m11-444h-178v222h178c61 0 111-50 111-111s-50-111-111-111z" horiz-adv-x="722" />

<glyph glyph-name="people-icon" unicode="&#xe81e;" d="M703 153c14-12 22-27 29-43 7-15 18-28 31-40 7-6 10-13 10-22-1-9-1-19 0-28 1-29-13-49-36-61-18-10-37-17-56-24-18-8-35-14-52-22-18-8-31-21-37-41-2-4-4-8-7-12-5-8-16-12-23-9-11 3-18 12-17 22 0 7 2 14 5 20 10 28 30 49 56 61 23 12 47 20 70 30 10 4 20 7 29 11 7 3 12 8 17 11 1 10 3 19 3 27 1 7-1 13-6 18-13 14-24 31-30 49-2 4-4 7-7 9-13 9-17 22-21 36-1 5-3 9-4 14-21 8-42 15-62 23-8 3-16 8-23 13-16 10-24 25-24 44-1 12-1 23 0 35 0 10 3 19 11 25 17 16 30 35 38 57 2 5 6 9 9 13 4 5 8 9 12 13-1 2-1 3-1 4-11 13-10 28-6 44 5 23 7 47 2 70-4 15-12 26-28 31-8 2-15 6-21 11-8 7-18 10-27 11-18 1-36-1-54-6-29-10-47-33-47-67-1-18 2-36 6-54 3-14 4-25-5-36-2-2-2-5-2-6 0-2 0-3 1-4 14-13 20-30 30-46 8-13 19-25 29-36 5-6 8-11 8-19 0-14 1-29 0-44 0-12-5-23-14-31-10-9-20-18-32-23-17-9-35-15-53-22-6-2-12-4-18-7-1-5-3-10-4-15-4-10-9-19-18-26-4-3-7-8-9-12-8-20-19-36-35-53v-35c9-14 23-18 37-23 19-8 38-14 57-21 24-10 46-23 63-43 11-13 19-28 22-45 2-11-3-20-11-25-10-6-19-5-26 3-4 6-8 12-10 19-5 13-13 25-25 31-17 9-34 17-51 25-18 7-35 13-53 21-7 3-14 7-20 12-20 15-34 33-31 60 1 9 1 18 0 27 0 9 3 15 10 21 15 12 26 27 34 45 5 11 10 22 20 30 2 2 4 4 6 7-2 4-3 7-4 10-6 10-6 20-5 30 4 23 8 46 5 69-2 20-10 35-31 40-7 2-13 5-18 9-12 11-26 14-41 13-16-1-33-4-48-11-21-9-32-25-37-47-5-20-2-40 1-60 1-5 1-10 3-14 3-10 2-19-4-28-2-3-2-8-4-12 4-4 8-8 10-11 4-6 9-12 12-18 8-21 21-39 38-54 7-7 10-14 10-24-1-9-1-19 0-28 1-28-13-47-36-60-18-10-37-16-56-24-17-8-35-14-52-22-18-8-32-21-38-41-1-4-2-7-4-9-6-10-17-15-26-12-12 4-18 13-16 25 2 16 8 29 17 42 12 16 27 29 46 37 22 11 46 20 69 29 10 4 19 7 29 12 6 2 11 7 16 10 1 10 3 19 3 28 1 6-1 12-5 17-14 14-24 30-31 48-1 4-4 7-7 9-23 23-30 48-17 78 1 1 1 1 0 0-2 22-6 43-7 63-3 45 24 100 88 118 29 7 58 11 86-3 18-8 36-17 53-26 31-17 44-45 46-79 1-18-2-36-3-56 25 8 52 14 73 33v36c-16 17-29 35-37 57-1 3-4 6-7 8-15 11-20 26-21 43-1 8 0 15 0 24-3 1-6 3-10 4-19 7-38 14-57 21-15 6-29 13-40 26-8 8-12 18-12 29 0 14 0 28 0 41 0 9 3 17 10 23 17 16 30 35 38 57 2 4 6 8 9 12 4 5 8 9 11 13 0 3 1 4 0 4-12 18-7 37-4 56 2 17 4 33 2 49-3 21-10 37-32 42-7 1-13 5-18 9-11 10-25 13-39 12-19-1-38-4-56-14-17-9-25-24-30-43-5-20-3-40 0-60 2-6 2-12 4-18 2-8 1-16-3-23-3-4-4-9-5-15 15-12 21-29 30-45 8-14 20-26 31-38 5-6 8-12 8-20 0-10 0-20 0-30 2-28-12-47-35-60-17-10-36-17-55-25-16-6-33-12-49-19-21-9-36-24-44-47-5-16-17-23-30-18-12 4-17 17-13 33 9 33 31 56 61 71 22 11 46 19 69 29 9 4 19 7 29 11 6 3 11 8 17 11 1 10 2 19 3 27 1 7-1 13-6 18-13 14-23 30-31 48-1 3-4 7-7 10-23 22-28 46-17 75 1 2 1 3 0 1-2 25-7 47-7 69 1 48 23 83 66 104 28 14 59 21 90 12 32-9 62-23 87-44 25-21 32-51 29-84-2-16-5-31-7-47 0-6 2-12 3-18 5-20 5-40-9-55-13-13-20-29-29-43-6-12-16-23-25-35v-34c20-18 45-24 71-31 0 4 1 7 1 9-7 67 37 123 103 133 32 5 62 2 90-17 5-3 10-6 16-8 40-15 58-46 61-87 1-9 1-18 1-28 16 1 47 15 60 27 1 5 2 10 3 15 2 13-1 23-10 34-10 11-17 26-25 40-3 4-5 9-9 13-22 21-28 46-17 74 1 2 1 3 1 3-3 22-6 42-7 63-3 45 24 100 88 117 28 8 56 11 84-1 19-9 37-19 56-28 33-17 50-62 44-96-2-16-5-32-7-48 0-5 2-11 3-16 4-15 4-29-1-43-2-4-3-9-6-12-17-12-22-33-33-50-7-9-14-17-22-28v-33c8-14 22-18 36-24 19-7 39-13 59-21 24-9 45-23 62-43 11-13 19-28 22-45 2-10-2-18-10-23-9-8-20-7-27 3-4 5-8 12-10 18-5 13-12 24-25 30-17 9-34 18-52 25-18 8-37 15-55 23-9 4-17 10-24 16-17 14-26 31-24 54 1 9 1 18 0 27 0 9 4 16 11 22 15 13 27 29 34 48 4 9 9 17 17 24 3 3 5 6 7 8 0 3 0 4 0 5-12 17-8 35-5 53 4 19 6 37 2 56-3 17-10 31-29 36-7 2-15 6-20 10-12 11-26 14-41 12-14-1-28-4-41-8-25-8-39-26-44-51-4-19-2-38 1-58 1-6 2-12 3-18 3-8 1-15-3-23-2-4-3-9-5-14 14-12 22-27 29-43 7-16 18-29 31-40 7-6 10-13 10-22-1-10-1-19 0-29 1-29-13-49-38-61-19-10-41-17-61-25-5-2-10-4-15-6 5-15 2-29-2-42-4-10-9-18-17-24-4-3-7-7-8-11-6-18-17-33-29-46-12-13-9-28-7-42 0-3 4-7 8-9 17-11 35-18 57-22-1 6-1 11-2 16-2 21-3 41 3 62 15 47 48 74 96 84 32 7 63 4 91-14 8-5 17-9 26-13 44-17 62-66 55-104-2-15-5-30-6-45-1-5 2-12 3-18 5-20 4-40-10-56-11-11-18-23-25-37-7-13-17-24-28-39v-33c8-13 22-18 36-23 19-7 39-13 59-21 24-9 45-23 62-43 12-13 19-28 22-45 2-12-3-22-14-26-8-4-15-3-21 4-5 6-9 12-11 20-6 13-13 24-26 31-17 8-34 16-51 24-17 7-35 13-52 21-8 3-15 7-21 12-20 15-33 34-30 60 1 9 0 18 0 27 0 9 3 16 10 21 15 12 26 28 33 45 5 11 10 22 20 29 2 2 4 5 6 8-1 4-2 7-3 10-7 10-7 21-5 32 4 23 8 46 5 69-3 19-10 33-31 38-6 2-13 5-18 10-12 11-26 14-41 12-16-2-32-5-47-10-22-8-33-25-38-48-5-20-3-39 1-59 1-5 1-11 3-16 2-9 0-17-3-25-2-4-3-9-5-15z" horiz-adv-x="1043" />

<glyph glyph-name="route-icon" unicode="&#xe81f;" d="M0 500c0 194 157 350 350 350s350-156 350-350c0-262-350-650-350-650 0 0-350 388-350 650z m350 250c-138 0-250-112-250-250s146-360 250-494c106 135 250 350 250 494s-112 250-250 250z m125-250c0-69-56-125-125-125s-125 56-125 125 56 125 125 125 125-56 125-125z" horiz-adv-x="700" />

<glyph glyph-name="towel-icon" unicode="&#xe820;" d="M1389 185c13 35 17 67 13 98-6 48-31 84-73 109 54 36 79 88 73 150-7 67-46 114-113 137l-81 28c-96 33-194 67-291 102-74 26-142 39-207 41-67 1-137-10-221-36-75-24-151-47-224-70-54-16-107-32-160-49-59-18-94-59-103-119-5-31-1-64 13-100 2-7 2-11-2-17-13-26-16-52-9-76 6-18 19-33 36-43-25-29-38-62-39-98-3-69 34-128 101-156 161-69 323-139 485-208 44-19 88-28 132-28 34 0 68 5 101 16 194 64 384 128 528 176 12 4 25 13 36 25 23 25 26 65 6 101-4 6-4 10-1 17z m-1327 240s2 1 4 1c2 0 6-1 12-3l97-31c109-34 223-71 335-105 23-7 49-10 69-10 43-3 77 25 84 68 6 39-18 78-58 90-44 13-88 27-132 40l-329 100c-4 1-7 2-11 3l-12 3-17-55 24-8c14-4 27-8 41-12l412-125 2-1c2-1 4-1 6-2 11-5 17-14 16-24-2-10-10-20-23-19-24 3-48 6-70 12-91 29-182 57-272 86-52 17-105 34-157 50-7 2-11 5-12 11-1 5-2 10-3 16-3 11-6 22-7 34-5 47 18 81 65 96l94 29c83 26 169 52 254 77 47 14 99 30 152 39 80 14 162 6 251-25l32-11c121-42 242-84 363-126 44-15 71-51 73-93 1-44-23-81-66-99-161-69-323-139-484-208-65-27-132-30-199-8-133 44-266 89-399 133l-118 39c-16 6-19 12-19 22 0 12 2 15 3 16z m31-115c5 4 8 6 12 6 2 0 4-1 7-2 106-35 212-70 318-106l145-48c82-27 163-24 241 9 134 57 273 117 424 182 10 4 18 5 28 1l2 0c18-7 36-12 49-26 28-29 27-63 21-97-4-24-14-36-40-44-82-25-166-51-246-77-54-17-108-34-161-51-22-7-47-10-67-12-15-2-25 5-27 19-2 11 6 20 20 25l480 146-17 56-203-62c-93-28-186-56-279-85-40-12-65-47-60-86 5-40 36-70 74-72 30-2 60 3 99 15l102 33c106 33 211 67 316 101 6 2 8 1 9 1 0-1 2-2 3-8 4-17-1-25-17-31l-105-35c-138-46-276-92-414-138-66-22-133-19-197 9-163 69-325 139-487 208-33 15-56 44-62 78-6 34 6 68 33 92z" horiz-adv-x="1403" />

<glyph glyph-name="train-icon" unicode="&#xe821;" d="M837 650c0 42-11 75-34 103-20 25-51 46-91 61-86 32-202 36-294 36s-207-4-293-36c-40-15-71-36-91-61-23-28-34-61-34-103v-518c0-95 78-173 173-173h43l-107-107v-2h84l109 109h233l109-109h84v2l-107 107h43c95 0 173 78 173 173v518z m-74-518c0-55-45-99-100-99h-490c-55 0-99 44-99 99v209h689v-209z m-689 282v199h307v-199h-307z m689 0h-308v199h308v-199z m-696 273l36 31c22 18 55 32 101 41 53 12 125 17 214 17s162-5 215-17c46-9 79-23 100-41l37-31h-703z" horiz-adv-x="836" />

<glyph glyph-name="waves-icon" unicode="&#xe822;" d="M926 51c-83 0-136-25-182-48-40-20-73-36-126-36s-87 15-127 36c-46 23-97 48-182 48s-136-25-182-48c-40-20-73-36-127-36v-117c83 0 136 25 182 48 40 20 72 36 127 36s86-15 126-36c47-23 97-48 183-48s135 25 182 48c40 20 73 36 126 36s87-15 127-36c46-23 97-48 182-48v117c-55 0-86 15-127 36-46 23-98 48-182 48z m0 267c-83 0-136-26-182-48-40-19-73-36-126-36s-87 15-127 36c-46 23-97 48-182 48s-136-26-182-48c-40-19-73-36-127-36v-117c83 0 136 26 182 48 40 21 71 36 127 36s86-15 126-36c47-23 97-48 183-48s135 26 182 48c40 21 71 36 126 36s87-15 127-36c46-23 97-48 182-48v117c-55 0-86 15-127 36-46 23-98 48-182 48z m182 484c-46 23-97 48-182 48s-136-25-182-48c-40-19-73-36-126-36s-87 15-127 36c-46 22-97 48-182 48s-136-25-182-48c-40-20-73-36-127-36v-116c83 0 136 26 182 48 40 20 72 36 127 36s86-15 126-36c47-22 97-48 183-48s135 26 182 48c40 20 73 36 126 36s87-15 127-36c46-22 97-48 182-48v117c-55 0-86 15-127 35z m-182-218c-83 0-136-25-182-47-40-21-71-36-126-36s-87 15-127 36c-46 22-97 47-182 47s-136-25-182-47c-40-21-71-36-127-36v-117c83 0 136 26 182 48 40 19 73 36 127 36s86-15 126-36c47-23 97-48 183-48s135 26 182 48c40 19 73 36 126 36s87-15 127-36c46-23 97-48 182-48v117c-55 0-86 15-127 36-46 22-98 47-182 47z" horiz-adv-x="1235" />

<glyph glyph-name="tv-icon" unicode="&#xe823;" d="M1111 850h-1000c-61 0-111-50-111-111v-667c0-61 50-111 111-111h278v-111h444v111h278c61 0 111 50 111 111l0 667c0 61-50 111-111 111z m0-778h-1000v667h1000v-667z" horiz-adv-x="1222" />

<glyph glyph-name="wlan-icon" unicode="&#xe824;" d="M669 850c37 1 80-3 122-9 66-10 130-26 192-49 66-24 128-56 186-96 47-31 90-67 131-106 12-12 21-25 25-42 5-28-10-58-37-71-25-12-50-9-72 9-18 15-35 32-53 48-34 29-71 53-108 76-62 37-128 65-198 82-71 17-142 26-215 24-68-2-135-12-200-31-68-20-131-49-191-87-47-29-90-63-130-102-11-10-22-20-38-24-38-9-76 16-82 55-3 20 2 37 15 51 14 16 29 31 45 44 24 20 47 40 72 58 56 41 116 75 180 101 58 23 118 41 180 53 56 10 113 17 176 16z m-105-320c-86-15-167-44-238-96-26-19-51-41-76-62-7-5-12-12-17-18-17-23-16-54 0-77 17-23 46-32 73-25 14 4 25 13 35 23 47 45 102 79 163 101 39 15 80 24 121 26 37 3 74 2 110-4 36-7 72-14 106-29 22-10 43-21 64-34 17-10 34-22 49-35 16-12 29-25 44-37 29-22 70-16 92 13 22 28 18 64-9 91-23 23-49 45-77 64-102 71-215 105-325 108-49 0-82-3-116-9z m-14-292c-42-16-79-40-111-72-26-26-27-66-3-92 26-27 65-29 94-5 5 5 10 10 16 15 30 24 64 38 103 41 53 2 100-15 140-50 5-4 11-9 17-13 15-10 33-13 51-8 51 15 67 76 29 113-64 62-140 91-218 92-47-1-83-8-118-21z m111-388c41 0 75 32 75 72 0 41-33 74-74 75-39 0-72-34-72-73-1-40 32-74 71-74z" horiz-adv-x="1326" />

<glyph glyph-name="arrow-left-icon" unicode="&#xe825;" d="M500-150l-500 500 500 500 86-85-354-354h917v-122h-917l354-353-86-86z" horiz-adv-x="1148" />

<glyph glyph-name="arrow-right-icon" unicode="&#xe826;" d="M649 850l500-500-500-500-86 85 353 354h-916v122h916l-353 353 86 86z" horiz-adv-x="1148" />

<glyph glyph-name="bath-icon" unicode="&#xe827;" d="M250 500c55 0 100 45 100 100s-45 100-100 100-100-45-100-100 45-100 100-100z m650-200v409c0 78-63 141-141 141-38 0-74-15-100-41l-63-63c-8 3-16 4-25 4-20 0-39-6-54-16l138-138c10 16 16 34 16 54 0 9-2 17-4 26l63 62c7 8 18 12 29 12 23 0 41-18 41-41v-409h-342c-15 11-29 23-41 36l-70 78c-10 10-22 19-35 25-15 7-32 11-50 11-62 0-112-50-112-112v-38h-150v-300c0-55 45-100 100-100 0-28 23-50 50-50h700c28 0 50 22 50 50 55 0 100 45 100 100v300h-100z m0-300h-800v200h800v-200z" horiz-adv-x="1000" />

<glyph glyph-name="bicycle-icon" unicode="&#xe828;" d="M756 655c54 0 98 44 98 98s-44 97-98 97-97-44-97-98 43-97 97-97z m-512-317c-137 0-244-107-244-244s107-244 244-244 244 107 244 244-107 244-244 244z m0-415c-93 0-171 78-171 171s78 171 171 171 171-78 171-171-78-171-171-171z m283 488l117 117 39-39c63-63 146-102 249-102v97c-73 0-132 29-176 73l-93 93c-24 20-48 29-78 29s-53-9-68-29l-136-137c-20-19-30-43-30-68 0-29 10-53 30-68l156-137v-244h97v303l-107 112z m400-73c-137 0-244-107-244-244s107-244 244-244 244 107 244 244-107 244-244 244z m0-415c-93 0-171 78-171 171s78 171 171 171 171-78 171-171-78-171-171-171z" horiz-adv-x="1171" />

<glyph glyph-name="bread-icon" unicode="&#xe829;" d="M1279 427c-2-9-4-17-6-26-12-45-41-76-81-99-45-24-94-35-144-42-85-12-170-11-255-10-5 0-9 0-16 0 3-5 5-8 8-12 32-50 57-104 63-165 5-48-4-93-36-131-12-14-26-16-38-6-11 10-12 24 0 38 28 33 30 72 22 112-17 86-67 154-129 214-30-23-59-45-90-67 23-18 45-36 67-53 14-10 27-20 40-31 17-13 20-26 11-39-10-13-25-13-42 0-36 28-72 56-108 85-7 5-11 6-18 0-19-15-39-29-60-45 20-16 40-30 59-45 5-3 9-6 13-10 12-10 14-24 6-35-9-12-23-14-36-5-24 19-49 37-73 56-9 6-14 6-21 0-24-19-48-37-72-54-14-10-28-9-37 2-9 12-7 27 6 37 22 16 43 32 64 48 2 1 4 3 7 6-22 16-43 33-65 48-2 2-8-1-11-3-37-29-74-58-111-86-6-4-14-8-21-9-11-1-19 6-23 16-4 12 0 22 9 29 31 24 62 48 93 72 6 5 12 10 19 15-30 23-59 44-90 68-21-24-43-47-62-72-36-47-61-99-69-159-7-54 13-97 62-124 39-21 82-30 126-36 111-13 222-12 333-4 3 0 6 0 10 0 13-1 23-10 24-23 1-12-7-23-19-25-15-3-29-4-44-5-98-4-195-5-293 5-49 5-98 14-143 35-85 38-120 107-104 198 14 72 47 134 93 189 58 70 128 122 215 151 34 12 70 18 106 19 4 0 8 0 12 0 2 46 13 89 33 129 60 122 152 209 283 253 89 29 178 23 263-17 124-59 210-152 256-281 7-20 10-41 15-62v-45z m-383 122c24-17 45-33 67-50 17-13 21-27 11-40-10-12-24-12-40 0-24 18-47 35-70 53-7 5-11 5-18 0-25-19-49-37-74-56-14-10-29-8-37 4-9 12-6 26 7 36 21 16 42 31 63 47 2 2 4 4 7 7-20 15-40 29-58 44-8 6-12 5-19 0-37-29-74-58-111-86-6-5-17-9-25-7-7 2-14 11-18 18-4 10 1 19 10 26 33 26 66 52 100 77 3 3 7 7 12 10-31 23-60 45-90 67-72-70-127-149-134-253 10-2 17-3 24-5 88-20 160-66 222-129 5-5 13-9 19-9 84-5 168-5 252 2 50 4 100 11 148 29 63 25 93 71 85 132-13 95-66 168-133 233-30-22-59-44-89-67 12-9 22-17 33-25 26-21 52-41 78-62 11-8 14-19 9-30-5-11-13-17-25-15-6 1-13 5-18 9-37 28-74 57-111 85-3 3-9 5-11 3-22-15-43-31-65-48z m-82 170c-25 19-48 37-71 55-2 1-6 2-8 1-29-11-55-25-81-44 31-23 60-45 90-67 23 18 46 36 70 55z m-430-400c-24 19-48 38-71 56-2 1-6 2-8 1-27-14-54-28-83-43 33-24 62-46 92-68 24 18 46 36 70 54z m671 412c-26 19-53 33-81 45-3 1-8-2-11-4-14-11-28-22-42-33-8-7-16-13-25-20 24-19 47-37 70-55 30 23 59 45 89 67z m-589-412c24-19 47-36 70-54 30 22 59 44 92 68-29 15-56 29-83 43-2 1-6 0-8-1-23-18-47-37-71-56z m389 368c-24-18-46-36-70-54 13-10 26-20 39-29 10-7 20-21 30-20 10 0 21 12 31 20 13 9 26 19 39 29-24 19-46 36-69 54z m-500-454c23-16 44-32 65-48 2-1 7-2 9 0 22 15 43 32 66 48-24 19-47 37-70 55-24-19-46-36-70-55z m555 561c-38 7-73 7-111 0 18-14 34-27 50-39 2-2 8-2 11 0 16 12 32 25 50 39z m-541-400c19-14 35-27 51-39 2-2 8-2 10 0 16 12 32 25 51 39-38 8-74 8-112 0z m324-469c-13 1-25-10-26-24 0-13 11-25 24-26 14 0 26 11 26 25 0 13-10 25-24 25z" horiz-adv-x="1279" />

<glyph glyph-name="bed-light" unicode="&#xe82a;" d="M281 225c86 0 157 70 157 156s-71 157-157 157-156-71-156-157 70-156 156-156z m0 250c52 0 94-42 94-94s-42-93-94-93-93 42-93 93 42 94 93 94z m750 63h-500c-17 0-31-14-31-32v-343h-437v546c0 9-7 16-16 16h-31c-9 0-16-7-16-16v-718c0-9 7-16 16-16h31c9 0 16 7 16 16v109h1125v-109c0-9 7-16 15-16h31c9 0 16 7 16 16v328c0 121-98 219-219 219z m157-375h-625v312h468c86 0 157-70 157-156v-156z" horiz-adv-x="1250" />

<glyph glyph-name="farm-regular" unicode="&#xe82b;" d="M219 756a125 125 0 0 0 125-125v-73l28 56a125 125 0 0 0 61 58l0 0a219 219 0 0 1-433-41v-750a31 31 0 0 1 31-31h219v94h-156v687a125 125 0 0 0 125 125z m562-343h-125a31 31 0 0 1-31-32v-125a31 31 0 0 1 31-31h125a31 31 0 0 1 32 31v125a31 31 0 0 1-32 32z m337-44l-108 217a63 63 0 0 1-30 29l-236 105a63 63 0 0 1-51 0l-235-105c-10-4-21-16-20-16a62 62 0 0 1-10-13l-109-217a63 63 0 0 1-6-28v-491h781a31 31 0 0 1 31 31v460a63 63 0 0 1-7 28z m-87-425h-218v125a31 31 0 0 1-32 31h-125a31 31 0 0 1-31-31v-125h-219v390l100 200 213 94 212-94 100-200z" horiz-adv-x="1125" />

<glyph glyph-name="car-icon" unicode="&#xe82c;" d="M0 415h0 0z m293-240c42 0 77 35 77 78s-35 77-77 77-78-35-78-77 35-78 78-78z m585 0c42 0 77 35 77 78s-35 77-77 77-78-35-78-77 35-78 78-78z m138 623h0s134-386 134-386v-517c0-25-20-45-45-45h-65c-25 0-45 20-45 45v85h-820v-85c0-25-20-45-45-45h-65c-25 0-45 20-45 45v517l134 386c11 31 40 52 74 52h715c34 0 63-22 73-52z m24-363h-930v-365h950v365h-20z m-32 109l-70 203-5 13h-697l-5-13-70-203-9-26h865l-9 26z m-873 260h0 0z" horiz-adv-x="1150" />

<glyph glyph-name="checkmark-icon" unicode="&#xe82d;" d="M1277 840l33-34c14-14 14-37 0-51l-894-895c-14-14-37-14-51 0l-354 355c-15 14-15 37 0 51l33 33c14 14 37 14 51 0l295-295 836 836c14 14 37 14 51 0z" horiz-adv-x="1321" />

<glyph glyph-name="desk-icon" unicode="&#xe82e;" d="M1523 850h-1480c-30 0-43-12-43-40 0-307 0-613 0-921 0-26 13-39 40-39 15 0 30 0 46 0s31 0 46 0c26 0 39 13 39 39 0 23 0 47 0 70v97s917 0 917 0v-161c0-34 11-45 45-45h390c37 0 47 10 47 47v906c0 36-10 47-47 47z m-21-690v-242h-345v242h345z m0 207v-138h-345v138h345z m-345 277v137h345v-137h-345z m344-70v-137h-345v137h345z m-414 52v-500h-915v500h915z m-983 22v-730h-36v863h1019v-86h-936c-37 0-47-11-47-47z m1283-642h-117v66h117v-66z m-117 739h118v-66h-118v66z m118-272h-118v65h118v-65z m0-208h-118v66h118v-66z" horiz-adv-x="1570" />

<glyph glyph-name="games-icon" unicode="&#xe82f;" d="M0-69c6 12 13 24 19 36 1 2 2 4 2 6-4 50 15 75 64 84 1 1 1 1 4 2 0 18-1 37 1 56 1 16 4 32 9 47 15 50 50 79 98 97 17 6 35 12 52 18 7 2 13 4 19 7 27 12 37 30 32 58-4 25-26 46-52 48-4 1-9 1-13 0-9 0-15-2-17-14-5-32-31-52-64-53-24 0-48 0-72 0-16 0-24 8-24 24 0 39 0 79 0 118 0 6 2 13 5 18 44 67 100 120 175 151 5 2 5 5 4 10-3 10-6 21-9 32-2 9-1 17 6 23 8 6 15 6 24 2 49-22 98-44 147-67 53-24 84-68 103-121 15-41 21-82 22-125 1-70 0-140 0-210 0-12-6-21-16-23-10-1-20 4-23 13-1 4-1 10-1 15 0 61 0 123 0 184 0 45-4 88-19 130-18 50-48 89-100 109-31 11-60 26-92 41 1-7 3-11 4-16 3-14-2-23-15-27-74-24-127-73-170-136-6-10-4-25-6-37 25-6 31-12 31-24-1-12-8-17-29-20 0-5 0-11 0-16 0-2 0-4 0-7 21 0 41 0 60 0 10 1 17 7 19 17 1 2 2 4 2 6-3 25 13 34 33 40 39 10 73 2 101-27 28-30 34-65 22-103-8-23-25-38-46-48-21-9-43-16-65-24-5-1-10-3-15-5-52-18-77-56-80-109-1-18 0-35 0-54 4 0 8 0 12 0 59 0 119 0 178 0 4 0 8 0 13-1 10-2 16-9 16-19 0-10-7-18-17-20-3-1-7-1-11-1-76 0-152 0-228 0-17 0-27-6-31-19-2-6-1-13-2-21 7 0 11 0 14 0 76 0 152 0 227 0 5 0 9 0 14-2 8-2 13-11 12-20-1-9-8-17-17-18-4 0-8 0-12 0-81 0-162 0-242 0-10 0-13-4-15-12-2-16 9-31 26-33 4 0 8 0 12 0 82 0 164 0 246 0 16 0 25-9 24-22-1-9-8-17-17-18-4-1-8-1-12-1-78 0-157 2-235 0-47-1-75 20-85 59 0 7 0 14 0 22z m770 121c-15 5-28 9-41 14-14 4-25-1-29-12-4-12 2-22 16-27 15-5 29-10 44-15 24-7 39 0 47 25 27 81 54 162 81 244 42 128 85 256 127 384 2 8 3 19 0 27-3 13-15 17-26 21-136 45-271 89-407 134-23 8-39 0-47-24-11-35-22-69-34-104-8-24-16-47-23-70-5-17 6-31 22-28 10 2 14 9 17 17 15 45 29 89 44 133 4 12 8 24 12 36 134-44 268-88 402-132-68-209-137-416-205-623z m-152-202c30 0 47 18 47 47 0 60 0 120 0 180 0 29-18 46-47 46-59 0-119 0-179 0-29 0-47-18-47-47 0-60 0-119 0-179 0-29 18-46 47-47 30 0 59 0 89 0 30 0 60 0 90 0z m6 232v-191h-190v191h190z m76 445c-16 28-41 38-72 34-27-3-51-25-56-54-3-17-3-37 0-55 8-45 30-86 51-127 6-10 17-13 29-6 23 12 47 24 69 38 27 15 51 33 68 60 12 17 18 37 13 58-8 43-57 70-99 49-1 1-2 2-3 3z m-91-52c0 8 1 16 3 24 3 14 15 23 29 23 14-1 23-8 27-23 1-5 2-9 3-14 4-16 20-22 34-11 4 4 8 8 13 11 11 8 21 8 32 0 11-7 16-20 12-31-5-11-11-21-19-30-26-27-60-43-94-61-17 36-36 71-40 112z m17 225c3 7 5 14 7 22 2 10-3 20-13 24-10 3-21-2-25-12-3-7-6-14-7-22-3-12 6-24 19-24 8 0 15 4 19 12z m120-577c5 8 7 17 9 27 2 9-5 18-14 21-9 3-19-1-23-10-4-8-7-16-8-25-2-12 7-23 20-25 6 4 13 6 16 11z m-472 388c0-13 9-21 23-21 13 0 22 8 22 20 0 12-9 20-22 20-13 0-23-7-23-19z m313-488c0 12-9 20-22 21-14 0-23-9-23-21 0-11 9-20 22-20 13 0 22 8 23 20z m-93 21c-14 0-23-9-23-21 0-11 9-20 22-20 13 0 22 8 22 20 1 12-8 20-21 21z m93-94c0 12-10 20-23 20-13 0-23-9-22-21 0-11 9-19 22-19 14 0 23 8 23 20z m-72 0c0 12-9 20-22 20-13 0-22-8-22-21 0-12 9-19 23-19 13 0 22 8 21 20z" horiz-adv-x="1017" />

<glyph glyph-name="kitchen-icon" unicode="&#xe830;" d="M1000-138c-5-9-13-12-24-12-317 0-635 0-953 0-18 0-23 6-23 23 0 107 0 214 0 321 0 18 6 23 23 23 20 0 40 0 60 0v16c-5 0-10 0-14 0-12 1-19 8-18 18 0 9 6 16 18 16 54 0 108 0 162 0 12 0 19-7 19-17 0-9-7-16-18-17-5 0-9 0-14 0-1-3-1-5-1-8 0-2 0-4 0-7h165v15c-4 0-9 0-14 0-11 1-18 8-18 17 0 10 7 16 19 16 54 1 108 1 163 0 11 0 18-6 18-16 0-9-7-16-18-17-5 0-9 0-14 0-1-3-1-5-1-8 0-2 0-4 0-7h83c0 4 0 7 0 11 0 126 0 253 0 379 0 21 5 25 25 25 117 0 234 0 351 1 11 0 19-3 24-12v-760z m-34 22v449h-332v-449h332z m-332 484h332v232h-332v-232z m-368-484v199h-232v-199h232z m35 299v-299h298v299h-298z m-267-65h232v65h-232v-65z m84 115v-15h65v15h-65z m299-15h65v15h-65v-15z m-62 632c9-6 12-14 12-24-1-14 0-27 0-40 1-1 1-2 2-2 18 3 29-8 39-21 50-60 100-119 150-179 2-3 4-6 6-9 6-10 1-21-11-24-3-1-7-1-10-1-162 0-324 0-485 0-2 0-4 0-6 0-7 1-13 3-17 10-3 7-1 14 4 19 9 12 19 23 28 35 41 49 82 98 123 147 11 13 21 28 43 22 0 15 1 29 0 42 0 10 2 19 11 25h112z m-268-266h426c-1 2-1 3-2 4-44 52-88 105-132 158-2 2-8 4-12 4-44 0-89 0-133 0-7 0-11-2-15-7-42-50-84-101-126-151-2-2-4-5-6-8z m180 200h66v32h-66v-32z m383-517c0-10 0-20 0-30 0-1 0-2 0-2 1-11 6-17 16-18 9 0 17 6 17 16 1 23 1 45 0 67 0 10-8 17-17 17-9-1-16-8-16-18 0-11 0-21 0-32h0z m33 198c0 11-7 18-17 18-10 0-16-7-16-19 0-20 0-41 0-61 0-12 7-19 16-19 10-1 17 7 17 19 0 10 0 20 0 30 0 11 0 21 0 32z m-117-431c0-32 0-64 0-96 0-15-6-21-21-21-63 0-127 0-190 0-15 0-21 6-21 21 0 64 0 128 0 192 0 14 5 20 20 20 64 0 128 0 192 0 15 0 21-6 21-21 0-32 0-63 0-95z m-33-83v165h-166v-165h166z" horiz-adv-x="1000" />

<glyph glyph-name="layout-icon" unicode="&#xe831;" d="M999-150h-999v1000h16c109 0 219 0 329 0 13 0 23-4 34-12 56-43 113-86 170-128 8-6 10-10 3-18-6-8-12-17-19-27-13 9-25 18-36 26-45 35-90 69-135 103-6 4-14 8-20 8-96 0-192 0-288 0-2 0-4 0-6-1v-903h379v380h-164v47h379v-46h-165v-381h474v380h-164v47h165v477h-308v47h355v-999z" horiz-adv-x="999" />
</font>
</defs>
</svg>
